<svg xmlns="http://www.w3.org/2000/svg" xmlns:xlink="http://www.w3.org/1999/xlink" version="1.0" height="1080" width="825.355" xml:space="preserve" viewBox="0 0 1228.335 1296.982" id="svgRoot"><defs id="defs6930"><linearGradient id="linearGradient7010"><stop id="stop7012" offset="0" style="stop-color:#000;stop-opacity:1"/><stop id="stop7014" offset="1" style="stop-color:#000;stop-opacity:0"/></linearGradient><linearGradient gradientUnits="userSpaceOnUse" y2="501.888" x2="125.432" y1="501.888" x1="122.489" id="linearGradient7016" xlink:href="#linearGradient7010"/><font vert-adv-y="1024" vert-origin-y="768" vert-origin-x="512" horiz-origin-y="0" horiz-origin-x="0" id="font6932" horiz-adv-x="0"><font-face id="font-face6934" descent="-270" ascent="703" units-per-em="1000" font-family="fnt0"/><glyph id="glyph6938" d="M0 0Z" horiz-adv-x="199"/><glyph id="glyph6940" d="M192 290h213L298 555 192 290m10-304c-10 8-19 15-27 20-8 6-19 10-31 15-21 9-43 13-67 13C35 34 1 21-25-6c-27-28-40-63-40-107 0-42 15-75 46-101s71-39 120-39c8 0 17 1 27 2 9 1 17 1 22 2 18 3 34 7 50 13l4-18c-8-4-17-6-26-8-10-3-18-5-24-6s-14-2-24-3c-11-1-21-1-31-1-55 0-100 16-135 47-34 31-51 72-51 122s16 92 48 128C-8 60 37 82 93 92l127 321c-7 12-14 20-22 25s-19 8-32 9c-12 0-21-2-28-7-9-4-16-11-22-21l-7-11c-3-8-8-13-14-14l-6 3-2 6c0 28 9 54 28 78 19 25 40 37 63 37 12 0 24-2 35-8s23-16 34-29l40 103c-4 8-9 14-14 19s-12 10-20 14c-13 7-27 11-42 11-5 0-10 0-16-1-5-1-12-4-22-7-9-4-20-11-32-23l-16-21c-5-10-10-15-14-15l-6 2-3 8c0 4 3 12 8 26l18 34c18 24 37 42 58 54s44 18 68 18c10 0 18 0 25-2 7-1 13-3 19-7l12-8c6-3 10-7 13-11l11 28 19-10-13-32L583 52l40 32 8-16-86-78-6-4-5-1-7 3c-2 1-4 4-6 10l-91 229H168L116 94c28 0 53-3 75-9 23-7 44-17 64-31l53 40 11-11-117-97Z" horiz-adv-x="626" unicode="A"/><glyph id="glyph6942" d="M599 135c-37-47-80-84-129-110S369-14 314-14c-40 0-77 8-112 22s-66 36-93 64c-28 29-49 63-63 103-15 40-22 85-22 133 0 79 20 151 59 217 39 65 92 116 161 152l7-12c-50-34-87-76-111-125-24-48-36-106-36-172 0-101 24-179 71-235 48-56 115-84 203-84h13c5 0 12 1 21 2l33 7v533h-5c-16 0-30 3-42 8-7 2-13 5-20 10-6 4-14 9-23 15l-35-29V267c0-40-6-69-20-89s-38-35-74-46l-6 10c9 10 15 21 19 35s6 31 6 51v303l-82-63-7 15 258 214c13-12 26-22 38-28 13-6 26-9 38-9 11 0 22 3 33 8s24 13 37 25l10-6c-14-28-29-50-46-67-16-15-36-25-59-31V62c18 8 37 19 58 33 20 14 41 32 64 52l12-12Z" horiz-adv-x="608" unicode="C"/><glyph id="glyph6944" d="M313 124h40c6 0 16-1 32-4 8 0 17-2 28-4 10-2 20-4 28-7v216c-10 23-23 40-37 53-14 12-28 18-44 18-5 0-11-1-19-4l-28-13V124M485-12c-36 25-74 44-112 57s-76 19-114 19c-61 0-111-17-148-50-39-34-58-79-58-135 0-45 13-80 40-105 13-12 29-22 47-28 19-7 40-10 65-10 22 0 42 3 61 9 19 5 38 13 57 25l6-17c-12-8-21-14-29-16-7-4-17-7-31-10-21-6-44-9-70-9-50 0-90 14-119 44-14 14-24 32-32 52-7 19-11 42-11 69C37-54 60-1 104 40c45 42 108 69 189 82v379c0 32 2 58 6 76s11 34 20 46c6 10 14 20 24 29s21 17 33 23c12 7 24 12 36 16s23 6 33 6 19-1 27-3 18-5 30-10c19-9 39-23 59-42l22 14 11-15-83-70c-11 11-21 21-30 28s-19 13-30 20c-18 10-36 15-52 15-27 0-48-9-63-29-15-19-23-47-23-84V397l55 26c32 16 52 24 60 24 14 0 28-4 43-14 14-10 28-24 41-42l36 25 10-14-97-77V105c14-5 28-12 43-20 13-5 28-13 44-24l38 27 8-13-109-87M150 442v7c0 28 3 47 8 58s13 21 25 31l15 12c2 2 7 5 17 11l21 10 5-2 1-3-2-6c-10-18-15-41-15-70V203c0-12-3-23-8-32-5-10-13-20-25-32-9-8-19-15-30-22s-18-11-23-11l-4 1-2 5 3 5c9 18 14 41 14 70v139h-24c-13 0-22-2-29-7-7-4-13-13-17-24l-3-12c-2-8-5-13-10-14-4 0-7 4-8 10-2 8-3 21-3 41 0 24 7 41 19 52 13 11 34 16 63 16h12v54m150 249c-10-29-26-52-48-69-22-18-45-27-71-27-19 0-46 6-80 17-11 4-23 8-36 11s-22 5-26 6c-16 0-28-5-38-16-9-11-14-26-14-44 0-15 3-28 10-37 3-6 6-11 10-14s9-6 16-10l-4-14c-16 7-28 17-36 30s-12 28-12 45c0 31 13 60 39 87 28 27 57 40 86 40 17 0 42-5 76-17s57-18 71-18c7 0 15 3 24 8 4 2 8 6 12 11s9 11 13 17l8-6Z" horiz-adv-x="598" unicode="E"/><glyph id="glyph6946" d="M306 388h194v131l-53-14c-6-1-13-2-21-3s-15-1-23-1h-30c-8 2-15 4-20 5-4 1-11 3-21 5-9 3-18 6-26 8V388m-156 54v7c0 28 3 47 8 58s13 22 25 32c5 4 10 7 15 11 2 2 7 5 17 11l21 10 5-2 1-3-2-6c-10-18-15-41-15-70V267c0-32-2-54-7-64s-14-21-26-32l-32-24-21-10-4 2-2 5 3 5c9 18 14 41 14 70v107h-24c-13 0-22-2-29-7-7-4-13-13-17-24l-3-12c-2-8-5-13-10-14-5 0-7 4-8 10-2 8-3 21-3 41 0 24 7 41 19 52 13 11 34 16 63 16h12v54m350-116H306V187l54 14c14 3 23 4 26 5h17c8 0 15 0 23-1 8 0 18-2 29-4s18-4 22-5 12-4 23-9v139M235-14c-31 18-58 30-79 37-22 9-43 13-63 13C57 36 27 23 4-3c-24-27-36-59-36-97 0-41 14-74 43-99 28-26 65-38 111-38l11 1h17v-16l-17-2-17-1c-50 0-91 15-120 44-31 27-47 64-47 111C-51-43-32 6 7 45c37 39 83 59 140 59 11 0 21-1 30-2s20-4 32-8 25-8 38-13c12-5 25-12 39-19v601c-17-22-35-39-52-51-18-12-36-18-53-18-19 0-45 6-78 18-33 11-54 17-64 17-16 0-28-5-38-16-9-11-14-26-14-44 0-14 3-26 10-35 6-9 16-17 29-23l-7-17c-16 7-28 17-36 30s-12 28-12 45c0 31 13 60 39 87 28 27 57 40 86 40 17 0 42-5 76-17s57-18 71-18c7 0 15 3 24 8 4 2 8 6 12 11s9 11 13 17h14V539l51-15c7-1 15-2 23-3 9-1 17-1 25-1h26c8 2 14 3 18 4 16 4 33 9 51 15v55l-44 34-39-22-12 12 115 79 77-66 49 32 11-15-82-59V91l36-31 38 20 11-13-124-81-65 61-53-29-10 18 92 54v78c-16 6-32 10-49 13s-29 4-35 5h-16c-6 0-13 0-21-1s-16-2-25-4c-8-2-16-3-22-5-7-2-16-4-26-8V65l28 23 11-15-110-87Z" horiz-adv-x="670" unicode="H"/><glyph id="glyph6948" d="M235 107v183l-40 27c-9-5-17-8-24-11s-16-6-28-9c-11-3-25-5-41-5H91l97-103-10-13-36 35c-22-13-38-27-49-40-10-14-16-30-16-48 0-17 5-33 15-47 11-13 27-25 48-35l95 66m0-22L94-14C66-3 46 12 32 29 19 46 12 66 12 89c0 29 10 54 28 74 18 21 48 41 91 61l-71 75-4 4c-11 13-17 25-17 36 0 12 5 23 13 32s17 13 28 13c12 0 21-4 29-13s12-19 12-30c0-6-1-12-4-18s-7-11-12-14c22 0 45 7 69 19s49 31 75 56l70-55 39 24 7-12-65-44V76l31-32 28 20 8-13-81-65c-14 9-25 22-35 39-8 17-13 37-16 60Z" horiz-adv-x="377" unicode="a"/><glyph id="glyph6950" d="M126 307V81l87-35 28 12 28 8v226l-59 64c-10-10-22-19-37-29-8-4-17-9-27-13-3-1-10-4-20-7M78 590l257-278 40 30 10-11-50-46V69l10-1 15-3V45l-17 3-23 2c-26 0-54-5-85-16-30-12-58-28-85-48L50 45 12 24 4 38l57 40v223l-18 1-10 2 4 20 21-3h16c23 0 45 4 67 12 19 8 38 21 55 37L38 543l40 47Z" horiz-adv-x="395" unicode="d"/><glyph id="glyph6952" d="m126 162 119 75-32 48-38 51-25-12-24-9V162M40 48 8 27-2 39l63 47v215l-18 1-10 2 4 20h8l9-1c23 0 48 6 77 16s58 25 87 45l44-62 46-68-182-116V86l75-46 86 55 10-16-148-93L40 48Z" horiz-adv-x="311" unicode="e"/><glyph id="glyph6954" d="M137 384h69l12 27 16-4-28-73h-69V76l30-24 29 20 8-14-93-72-61 51-29-20-7 14 57 45v258H29l-12-27-15 5 29 72h40v159l-10 26c23 8 42 19 58 32 16 14 31 32 44 54 5-6 10-13 17-21 6-8 10-13 12-15 8-8 14-12 19-12l9 3 17 14v-5l1-8c0-15-4-29-13-40-9-12-19-18-30-18-8 0-16 4-25 10-4 3-9 7-14 12-6 5-12 11-19 17V384Z" horiz-adv-x="220" unicode="f"/><glyph id="glyph6956" d="m31 516 83 68 47-42 22 14 12-14-83-68-48 43-24-15-9 14m122-182 31 21 12-12-69-52V74l27-28 29 19 12-11-90-68C87 1 76 13 70 22c-5 9-8 19-8 31v238l-25 26-35-25-8 14 104 78 55-50Z" horiz-adv-x="205" unicode="i"/><glyph id="glyph6958" d="m71 294-28 28-34-22-9 11 86 73c17-14 29-28 37-41 8-12 12-24 12-36v-23l137 100c23-18 39-33 45-43s9-22 9-34v-23l137 100c12-10 22-18 29-24s12-12 15-18c8-8 11-18 12-27l50 34 6-18-56-40V76l30-32 28 20 9-13-84-65-34 37c-8 14-12 22-12 23v244l-39 35-91-66V76l31-24 29 20 8-14-93-72-70 64 33 26v214l-40 35-89-66V76l30-24 29 20 8-14-93-72-59 51-29-20-7 14 57 45v218Z" horiz-adv-x="596" unicode="m"/><glyph id="glyph6960" d="m71 294-28 28-34-22-9 11 88 73c17-14 29-28 37-41 8-12 12-24 12-36v-44l138 121 79-65 51 35 7-13-75-54V76l31-32 28 20 9-13-80-65-29 25-28 30 3 22 2 31v197l-40 32-96-82V76l30-24 29 20 8-14-93-72-61 51-29-20-7 14 57 45v218Z" horiz-adv-x="415" unicode="n"/><glyph id="glyph6962" d="m126 79 87-35 28 10 28 7v227l-80 41-28-11-35-9V79m-65-1v223l-18 1-10 2 4 20 10-1h17c29 0 60 6 92 16s64 25 96 45l83-60 39 20 8-14-47-31V69l14-2 15-3-6-18h-9l-17 1c-34 0-66-5-96-15s-59-26-86-46L50 45 12 24 4 38l57 40Z" horiz-adv-x="395" unicode="o"/><glyph id="glyph6964" d="M139 99h10c24 0 46-4 65-12 20-7 38-18 56-35l12 5v231l-63 40-80-58V99M74 81v209l-30 32-34-22-7 11 86 73c16-14 29-27 38-41 8-14 12-26 12-36v-15l129 92 91-61 33 17 4-13-48-32V70l27-3V50h-9l-13 1c-27 0-50-5-71-15-21-11-40-27-58-50-7 12-14 21-19 28-6 6-14 13-24 22-14 10-28 16-42 18v-251L19-270l-7 15 62 39V55c-12-2-24-6-34-12-11-6-22-15-32-25l-9 13c5 6 9 10 12 13s10 8 20 15c11 8 25 15 43 22Z" horiz-adv-x="407" unicode="p"/><glyph id="glyph6966" d="m126 79 75-40 66 39v197l-71 57-34-13-36-10V79m218 234 36 29 11-10-59-53v-476l-120-73-7 15 62 39V55L151-14 50 45 12 24 4 38l57 40v223l-18 1-10 2 4 20 10-1h17c29 0 60 6 92 16s64 25 96 45l92-71Z" horiz-adv-x="383" unicode="q"/><glyph id="glyph6968" d="m137 275 96 109c5-15 11-27 19-36s17-13 26-13l14 3 9 4 2-2c0-14-7-28-22-43-16-14-33-21-51-21-11 0-20 2-27 6s-15 9-22 17l-44-50V76l30-24 29 20 8-14-93-72-61 51-29-20-7 14 57 45v176c0 12-2 22-7 31s-15 20-31 35L9 300l-9 11 88 73c17-14 29-28 37-41 8-12 12-24 12-36v-32Z" horiz-adv-x="292" unicode="r"/><glyph id="glyph6970" d="M44 38c6 3 13 7 23 12s20 9 31 13c18 6 33 8 46 8 9 0 19-2 31-8 10-3 21-10 32-21l28 11 7 129h-75L44 38m61 165h67l102 120c-4-2-11-6-20-10s-14-7-16-8c-10-4-20-6-30-6-6 0-11 1-15 1-3 1-9 3-16 6-11 5-24 13-38 23l-16-6-12-4-6-116M0-14-14 0l152 177H3v19h37l5 118-13 3-11 5 8 16 20-4 21-1c23 0 44 4 63 13 22 9 41 21 56 38 6-5 13-10 21-15 7-6 16-11 26-16 10-4 20-7 31-9 9 0 17 3 24 7 6 3 14 9 24 19l11 14 14-13-139-164h137v-18h-29l-6-128 19-5V39l-20 3-13 1c-12 0-23-1-34-3s-22-5-34-10-23-11-32-17c-9-7-20-16-33-27-16 14-32 25-47 31-15 7-29 10-40 10-10 0-21-2-31-7C28 16 20 9 14 1L0-14Z" horiz-adv-x="350" unicode="s"/><glyph id="glyph6972" d="M51 37 23 17l-9 14 59 45v258H26L9 308l-12 4 28 72h48v139l63 56V384h47l17 26 12-3-27-73h-49V76l31-24 28 20 8-14-92-72-60 51Z" horiz-adv-x="214" unicode="t"/><glyph id="glyph6974" d="m343 76 29-28 34 23 9-11-88-74c-16 16-28 30-35 42-9 12-13 24-13 35v45L140-14 61 52 10 16 3 30l74 54v210l-29 32-29-20-9 14 80 64c21-17 35-31 42-42 8-12 11-30 11-55V80l39-32 97 82v164l-31 24-29-20-8 14 93 72 61-51 39 30 12-13-73-56V76Z" horiz-adv-x="415" unicode="u"/></font><font vert-adv-y="1024" vert-origin-y="768" vert-origin-x="512" horiz-origin-y="0" horiz-origin-x="0" id="font6976" horiz-adv-x="0"><font-face id="font-face6978" descent="-318" ascent="682" units-per-em="1000" font-family="fnt1"/><glyph id="glyph6982" d="M0 0Z" horiz-adv-x="205"/><glyph id="glyph6984" d="M143-169c3 0 6 4 6 7 0 13-55 57-55 172 0 169 128 416 354 597 105 84 172 105 172 116 0 3-3 6-8 6-9 0-90-37-212-124C167 438 48 246 48 67c0-73 23-145 66-206 14-20 25-30 29-30Z" horiz-adv-x="324" unicode="("/><glyph id="glyph6986" d="M234 728c-3 0-6-3-6-6 0-13 55-58 55-173 0-169-127-415-353-596-105-84-174-106-174-117 0-2 4-5 9-5 9 0 90 36 212 123 233 167 352 359 352 538 0 73-23 145-66 206-14 20-25 30-29 30Z" horiz-adv-x="324" unicode=")"/><glyph id="glyph6988" d="M130 40c0 18-13 30-30 30-26 0-40-19-40-57 0-43-19-69-63-87-29-12-45-10-45-22 0-4 3-7 7-7 12 0 55 10 94 37 51 36 77 76 77 106Z" horiz-adv-x="204" unicode=","/><glyph id="glyph6990" d="M50 24C50 8 63-5 79-5c21 0 40 25 40 46 0 16-12 29-28 29-22 0-41-25-41-46Z" horiz-adv-x="204" unicode="."/><glyph id="glyph6992" d="M18 24C18 8 31-5 47-5c21 0 40 25 40 46 0 16-12 29-28 29-22 0-41-25-41-46m116 197c0-16 12-29 28-29 21 0 41 25 41 46 0 16-12 29-28 29-22 0-41-25-41-46Z" horiz-adv-x="227" unicode=":"/><glyph id="glyph6994" d="M90 40c0 18-14 29-31 29-26 0-40-19-40-57 0-43-19-68-63-86-29-12-45-10-45-22 0-4 4-7 8-7 12 0 54 10 93 37C63-30 90 10 90 40m44 181c0-16 12-29 28-29 21 0 41 25 41 46 0 16-12 29-28 29-22 0-41-25-41-46Z" horiz-adv-x="227" unicode=";"/><glyph id="glyph6996" d="M858 348c9-16 13-33 13-49 0-15-4-30-11-47-62-50-90-92-90-112 0-16 8-25 22-25 26 0 50 40 78 120 21 20 48 36 80 49-30-66-46-121-46-169 0-74 39-117 102-117 87 0 173 103 173 191 0 72-50 124-130 124h-11c122 232 220 347 220 386 0 12-8 20-21 20-30 0-104-61-223-184L870 386c-21 25-44 36-75 36-66 0-110-55-110-88 0-4 2-5 5-5 12 0 21 70 90 70 26 0 47-12 67-37C644 138 496 11 304 11 164 11 80 93 80 211c0 137 117 263 254 263 85 0 144-43 144-100 0-19-9-37-9-55 0-25 13-42 33-42 22 0 34 14 34 42 0 81-93 179-227 179-156 0-282-118-282-263C27 98 134-5 295-5c115 0 208 34 306 106 58 42 141 126 257 247m17-91c11 20 17 40 17 60s-3 37-12 56l148 153c113 117 178 174 195 174 4 0 5-4 5-10 0-23-117-143-267-387-35-11-63-26-86-46m153 37c69-1 103-38 103-114 0-96-61-167-121-167-36 0-52 20-52 63 0 44 21 119 70 218Z" horiz-adv-x="1220" unicode="A"/><glyph id="glyph6998" d="M705 646c74 31 132 47 176 47 45 0 69-14 69-40 0-30-31-74-94-124-49 43-99 83-151 117m-21-12c55-28 104-70 158-117-113-76-228-114-336-114-18 0-47 3-88 8 55 79 144 153 266 223M344 426c-116 28-180 98-180 167 0 73 76 124 207 124 95 0 183-22 276-67-150-65-251-140-303-224m8-302c79 20 153 30 223 30 164 0 265-47 265-98 0-56-85-122-211-122-141 0-243 70-277 190m-55 2c-95-35-143-62-143-74 0-4 2-5 7-5 15 0 57 37 146 63C384-19 519-93 659-93c121 0 199 61 199 131 0 78-86 142-245 142-80 0-168-13-265-39-5 24-8 47-8 69 0 58 17 115 51 170h7c176 0 327 39 461 122 20-17 26-33 40-33 2 0 4 2 4 4 0 6-5 12-12 19l-18 18c78 58 117 105 117 142s-32 56-93 56c-68 0-138-19-218-46-98 56-188 86-279 86-162 0-268-89-268-189 0-87 64-148 186-168-29-52-43-101-43-157 0-37 7-72 22-108Z" horiz-adv-x="889" unicode="C"/><glyph id="glyph7000" d="M403 210c-33-52-72-93-119-126-80 16-141 25-185 25-64 0-97-19-97-56C2 21 35-5 94-5c49 0 95 15 145 42C339 13 418-4 478-4c119 0 233 46 307 121 66 67 103 155 103 242 0 109-53 200-160 286 39 35 63 47 63 56 0 4-4 7-9 7-10 0-32-18-72-51-76 49-150 73-231 73-171 0-286-116-286-267 0-119 80-219 210-253m24 35c-122 40-199 148-199 259 0 113 73 183 195 183 85 0 167-25 242-74-84-97-149-227-238-368M307 81c45 35 87 74 123 123 23-2 40-3 50-3 87 0 168 39 212 97 25 33 36 68 36 80 0 6-2 10-7 10-13 0-13-21-25-48-29-64-103-107-189-107-12 0-29 1-52 4 82 111 129 250 228 366 117-83 176-181 176-282 0-146-120-270-300-270-55 0-139 11-252 30m-98-38c-42-22-79-33-110-33-50 0-76 15-76 41 0 14 12 26 36 26 25 0 77-10 150-34Z" horiz-adv-x="887" unicode="D"/><glyph id="glyph7002" d="M211 208c9-59 34-110 76-154C354-17 462-62 576-62 706-62 783 0 783 97c0 92-118 177-319 177-66 0-132-10-199-29-2 16-3 28-3 36 0 93 72 153 214 168 24-67 87-108 159-108 44 0 67 20 67 50 0 42-56 73-162 75-4 14-7 26-8 39 162 36 245 97 245 161 0 35-27 54-74 54-40 0-83-14-130-41-79 59-152 88-221 88-103 0-186-67-186-148 0-78 80-131 218-131 22 0 50 3 83 6 1-10 4-21 7-32-176-20-266-97-266-227v-11C88 173 28 132 28 122c0-2 3-6 6-6 11 0 63 46 177 92m59 20c52 13 103 20 153 20 199 0 330-99 330-189 0-52-55-99-143-99-150 0-296 109-340 268m273 223c93-2 143-29 143-64 0-16-11-28-30-28-45 0-82 31-113 92m-10 73c2 110 68 181 157 181 34 0 54-17 54-50 0-64-70-105-211-131m-65-6c-17-1-30-2-40-2-138 0-238 63-238 128 0 56 59 99 157 99 71 0 142-24 212-71-54-42-84-90-91-154Z" horiz-adv-x="824" unicode="E"/><glyph id="glyph7004" d="M431 279c1-8 1-15 1-22 0-81-40-128-93-128-33 0-56 21-56 49 0 43 50 79 148 101m45 29c-16 78-79 125-167 125-64 0-136-27-187-72-52-46-80-106-80-167C42 84 130-2 247-2c154 0 325 114 442 344l167 42c-39-74-58-144-58-211C798 75 853 6 938-2l11-53c3-14 6-21 13-21 3 0 7 3 7 7 0 6-6 27-9 66 143 8 242 111 242 212 0 67-43 114-103 114-89 0-168-88-168-249 0-18 1-36 2-54-44 8-69 54-69 133s26 160 73 252c131 35 234 69 309 120 65 44 97 89 97 134 0 42-26 66-68 66-78 0-260-98-409-320l-164-42c63 126 134 228 209 303 43 10 64 24 64 46 0 11-8 18-18 18-21 0-37-22-68-58-44-22-79-34-105-34-62 0-135 73-208 73-64 0-110-50-110-126 0-81 53-178 70-178 2 0 4 3 4 7 0 15-56 86-56 169 0 46 18 72 49 72 49 0 109-51 199-51 55 0 103 17 152 52-76-65-147-164-223-303l-185-45m475 118c110 193 246 280 308 280 28 0 41-12 41-36 0-75-116-177-349-244m8-409c1 185 53 287 120 287 41 0 72-39 72-104 0-101-78-183-188-183h-4M650 333C542 134 439 37 296 37 180 37 99 120 99 231c0 102 86 179 181 179 69 0 121-40 145-114-121-31-181-76-181-131 0-40 25-64 65-64 76 0 168 82 168 183v6l173 43Z" horiz-adv-x="1222" unicode="H"/><glyph id="glyph7006" d="M532 359c103 217 201 325 317 325 64 0 101-45 101-122 0-137-114-249-273-249-53 0-100 15-145 46m-30 19c-36 43-52 86-52 137 0 109 66 191 173 191h23c7 0 11 1 11 6 0 7-13 10-40 10-133 0-218-83-218-197 0-67 30-122 91-169C396 154 299 50 194 44 127 60 75 72 37 72 8 72-6 61-6 41-6 16 19 1 65 1c45 0 87 8 131 24 175-76 298-135 398-135 136 0 251 95 251 223 0 34-7 56-14 56-4 0-6-3-6-8 0-8 5-27 5-57 0-91-77-156-210-156-91 0-219 36-393 88 118 30 196 131 293 302 52-26 103-39 156-39 189 0 330 131 330 267 0 81-57 134-146 134-129 0-254-108-358-322Z" horiz-adv-x="898" unicode="L"/><glyph id="glyph7008" d="M1063 473c141 123 263 188 381 188 93 0 147-40 147-101 0-38-23-71-70-106-64-48-154-77-243-77-64 0-111 22-153 48 40 56 79 82 106 82 29 0 47-25 72-25 24 0 42 18 42 42 0 21-13 33-36 33-41 0-116-37-202-120-16 10-30 22-44 36m-29 36c-74 106-46 205-71 205-9 0-14-7-14-21 0-41 21-126 74-197-86-100-154-209-217-322 44 123 63 237 63 330 0 136-61 209-164 209-51 0-110-21-159-62-53-43-80-98-80-150 0-68 45-114 111-114 80 0 139 75 139 105 0 4-4 6-7 6-9 0-35-85-113-85-45 0-77 41-77 111 0 100 83 174 172 174 67 0 108-50 108-142 0-98-44-222-133-336C568 94 458 32 333 32 178 32 70 143 70 276c0 102 80 175 179 175 92 0 163-66 163-160 0-47-19-83-51-101-20-11-35-13-35-21 0-5 3-6 9-6 45 0 127 74 127 165 0 89-68 158-165 158-143 0-265-117-265-263C32 90 129-6 279-6c138 0 314 92 449 252 54 65 100 152 127 251-3-134-33-266-80-365-56-56-79-102-79-121 0-12 10-23 23-23 25 0 51 39 71 119 66 129 155 249 263 354 14-13 27-24 41-35-101-106-149-212-149-302 0-81 39-130 90-130 49 0 102 29 164 84 33 29 50 54 50 59 0 3-3 5-6 5-6 0-15-16-39-41-52-54-105-80-129-80-39 0-63 39-63 111 0 95 36 196 103 279 70-41 131-64 201-64 77 0 154 28 215 79 50 42 75 87 75 131 0 75-82 139-209 139-125 0-243-62-363-187Z" horiz-adv-x="1238" unicode="M"/><glyph id="glyph7010" d="M873 540c54-92 80-188 80-296 0-28-2-59-7-90-41-73-58-122-58-140 0-13 8-22 18-22 28 0 46 49 55 149 74 192 185 339 351 456 97 16 145 38 145 69 0 16-14 29-33 29-32 0-81-29-142-87-40-7-76-12-109-12-40 0-64 5-70 5s-9-2-9-6c0-8 29-10 91-10 19 0 43 3 74 6-134-110-233-251-300-423 12 60 18 118 18 180 0 117-35 204-81 269 15 44 24 72 24 86 0 9-6 14-15 14-20 0-14-28-27-81-58 55-124 82-204 82s-159-29-223-83c-66-56-101-130-101-209 0-99 69-166 155-166 62 0 121 32 164 89 25 33 34 58 34 66 0 3-3 5-6 5-7 0-9-18-26-47-34-56-78-85-121-85-82 0-149 75-149 176 0 132 92 225 220 225 85 0 169-43 235-124C738 220 533 33 347 33 187 33 73 148 73 236c0 34 13 49 42 58 26 8 45 15 45 43 0 23-12 37-32 37-39 0-68-56-68-145C60 84 146 0 302 0c217 0 415 181 571 540Z" horiz-adv-x="1116" unicode="N"/><glyph id="glyph7012" d="M589 146c-31 62-47 121-47 183 0 9 0 17 1 26 46-5 93-23 150-53-35-63-67-117-104-156m125 142c78-55 117-123 117-187 0-51-27-79-75-79-47 0-111 39-159 111 39 39 77 91 117 155m-170 83c8 92 35 163 86 218 62 66 155 108 240 108 125 0 210-83 210-212 0-90-52-144-127-144-40 0-62 17-62 39 0 16 13 30 13 48s-15 32-39 32-40-21-40-50c0-47 50-84 128-84 107 0 196 87 196 202 0 105-100 195-246 195-185 0-361-138-409-347h-23c-139 0-210-51-210-137 0-72 60-118 146-118 10 0 15 2 15 8 0 8-16 2-52 14-40 14-60 43-60 87 0 75 63 128 164 128h16c-2-18-3-36-3-53 0-71 19-138 57-203-60-44-119-66-184-66C203 36 78 145 78 256c0 53 17 42 57 49 27 5 42 22 42 42 0 30-15 47-39 47-42 0-75-55-75-141C63 91 160-6 308-6c86 0 166 32 244 98C598 27 663-8 726-8c73 0 119 47 119 124 0 64-41 124-124 184 60 113 99 200 136 253 42 59 82 79 82 87 0 3-3 6-6 6-17 0-127-88-234-331-46 28-96 45-155 56Z" horiz-adv-x="995" unicode="P"/><glyph id="glyph7014" d="M471 649c105-6 183-102 183-224 0-112-63-184-145-184-84 0-150 78-150 201 0 85 38 157 112 207m5 17h-15c-176 0-289-103-289-263 0-26 3-37 11-37 3 0 5 2 5 8 0 5-2 15-2 30 0 144 103 244 265 247-97-63-151-163-151-253 0-105 75-182 175-182 117 0 227 112 227 242 0 113-76 193-200 207 37 13 71 21 103 21 107 0 178-78 178-208 0-162-104-307-300-397-108 112-184 185-297 185-89 0-148-55-148-134C38 55 102-5 211-5c71 0 149 16 234 49 145-190 239-293 384-293 84 0 148 21 209 71 26 21 38 38 38 44 0 2-1 3-5 3-8 0-62-87-170-87-115 0-233 101-403 286 213 108 322 261 322 413 0 128-87 218-213 218-35 0-84-10-131-33M432 58c-51-20-102-30-157-30C147 28 72 94 72 164c0 50 40 86 105 86 85 0 166-64 255-192Z" horiz-adv-x="750" unicode="Q"/><glyph id="glyph7016" d="M681 380c17 52 33 100 48 145 27-20 50-46 72-75-40-32-79-55-120-70m55 162c38 101 105 154 189 154 79 0 138-59 138-137 0-67-46-115-103-115-39 0-68 20-86 61 28 41 46 67 46 87 0 14-9 24-21 24-19 0-41-30-41-68 0-5 1-18 4-37-17-19-34-36-52-51-22 26-45 54-74 82M614 362c-35-6-67-10-97-10-169 0-287 101-287 196 0 77 55 129 155 129 96 0 199-37 295-111-33-49-50-117-66-204m-7-32C574 128 479 22 344 22S79 136 79 274c0 31 10 52 18 52 7 0 21-8 39-8 28 0 46 18 46 41 0 21-17 37-36 37-39 0-91-72-91-172C55 88 151-5 295-5c176 0 309 123 378 358 45 17 88 46 137 83 44-58 55-92 63-92 4 0 6 2 6 6 0 11-19 44-59 97l45 45c21-43 54-63 103-63 85 0 148 65 148 148 0 77-63 134-160 134-101 0-201-48-266-132-97 82-193 132-283 132-114 0-195-80-195-187 0-123 107-213 261-213 40 0 84 7 134 19Z" horiz-adv-x="859" unicode="S"/><glyph id="glyph7018" d="M268 567c-91-25-138-55-138-63 0-3 3-7 7-7 9 0 43 33 127 54-6-28-9-54-9-78 0-140 94-248 212-248 106 0 192 94 192 183 0 96-101 177-252 177-37 0-77-5-123-14 16 59 68 94 139 94 150 0 290-55 418-55 39 0 78 5 121 13-86-63-145-160-215-277C630 149 537 33 377 33c-66 0-132 23-185 66-54 44-85 107-85 158 0 47 25 45 46 48 30 5 46 22 46 47 0 20-14 34-34 34-43 0-71-51-71-137C94 91 194-5 346-5c130 0 264 94 380 285 90 148 156 273 265 345 83 7 123 20 123 47 0 9-9 17-21 17-32 0-73-49-143-49-42 0-122 10-237 38-88 21-161 46-226 46-100 0-191-64-219-157m10-13c24 5 48 8 71 8 158 0 282-92 282-191 0-63-46-103-120-103-134 0-238 112-238 237 0 15 2 30 5 49Z" horiz-adv-x="780" unicode="T"/><glyph id="glyph7020" d="M254 449c40 15 75 23 108 23 116 0 204-90 204-173 0-59-46-108-112-108-96 0-201 95-201 218 0 11 0 25 1 40m-42-6c-67-42-101-97-101-103 0-3 3-6 6-6 9 0 27 36 87 86-3-18-5-35-5-53 0-122 85-211 201-211 106 0 188 69 188 174 0 99-77 168-201 168-46 0-89-9-132-29 14 126 121 214 241 214 124 0 216-106 216-282 0-204-152-364-333-364-99 0-161 50-204 50-21 0-35-11-35-28 0-40 78-64 223-64 362 0 588 149 708 450 37-60 104-88 130-88 8 0 12 3 12 9 0 12-25 7-60 26-42 23-65 49-73 86 13 59 21 108 21 148 0 59-10 85-39 85-25 0-45-34-45-91 0-33 11-72 28-122C949 177 752 20 441 20c-15 0-29 0-44 1 223 29 379 215 379 426 0 165-95 268-242 268-144 0-290-114-322-272Z" horiz-adv-x="1028" unicode="V"/><glyph id="glyph7022" d="M716 144C608 60 529 19 486 19c-33 0-50 24-50 68 0 66 39 139 95 235 70 119 122 204 122 284 0 77-42 119-121 119-74 0-146-36-202-104-61-74-96-175-96-282 0-109 35-193 43-193 4 0 6 3 6 5 0 8-35 70-35 172 0 120 39 212 128 288 64 54 142 82 188 82 49 0 76-28 76-78s-50-110-128-212c-73-95-131-170-131-271 0-86 33-131 95-131 53 0 124 40 222 110C593-83 494-172 341-172c-92 0-161 29-219 93C84-38 66 6 66 37c0 37 18 36 44 47 32 14 48 34 48 57 0 20-14 35-33 35-40 0-73-65-73-163 0-146 91-228 235-228 165 0 332 122 467 368 297 221 433 433 433 524 0 26-13 41-35 41-74 0-245-184-436-574m54 39c178 348 313 520 385 520 10 0 18-10 18-23 0-30-40-95-119-197-100-129-191-231-284-300Z" horiz-adv-x="924" unicode="Y"/><glyph id="glyph7024" d="M268 214c3 9 4 16 4 22 0 27-20 46-53 46-47 0-112-30-180-98-31-31-47-51-47-56 0-3 2-4 6-4 5 0 12 6 21 20-5-17-7-32-7-47C12 32 35-5 70-5c36 0 79 29 126 88-3-16-5-28-5-38 0-32 14-50 41-50 37 0 72 33 125 87 30 30 46 49 46 56 0 3-3 4-6 4-6 0-17-17-46-46-55-57-91-85-108-85-11 0-15 5-15 16 0 19 15 43 37 78l110 173-66-4-41-60M54 44c0 30 18 84 59 142 39 54 79 81 110 81 19 0 33-14 33-31 0-38-27-96-85-160-38-42-72-63-93-63-15 0-24 12-24 31Z" horiz-adv-x="394" unicode="a"/><glyph id="glyph7026" d="m371 611-69-9-128-219C69 204-7 139-7 128c0-3 1-4 5-4 5 0 11 9 22 21l24 27C22 126 5 91 5 59 5 19 26-5 63-5c48 0 103 27 154 81 9-2 17-2 23-2 37 0 71 17 102 52l11 13c1 1 1 2 1 5 0 4-1 6-4 6-2 0-5-1-7-4l-14-14c-27-28-59-44-81-44-5 0-11 2-17 3 44 59 63 113 63 150 0 27-10 41-29 41-40 0-30-42-40-104C207 68 132 10 71 10c-21 0-30 5-30 19 0 21 29 71 81 159l249 423Z" horiz-adv-x="338" unicode="b"/><glyph id="glyph7028" d="M20 144c-4-15-6-28-6-41C14 40 49-5 98-5c46 0 89 29 142 82 33 34 51 53 51 60 0 3-2 5-6 5-7 0-20-22-58-59-47-47-84-74-123-74-26 0-41 17-41 47 0 105 108 212 158 212 13 0 21-8 21-17 0-19-31-17-31-41 0-17 12-26 30-26 20 0 37 19 37 46 0 32-25 52-65 52-52 0-117-35-181-104-27-29-40-45-40-49 0-3 2-4 6-4 5 0 12 6 22 19Z" horiz-adv-x="281" unicode="c"/><glyph id="glyph7030" d="M268 214c3 9 4 16 4 22 0 27-20 46-53 46-47 0-112-30-180-98-31-31-47-51-47-56 0-3 2-4 6-4 5 0 12 6 21 20-5-17-7-32-7-47C12 32 35-5 70-5c36 0 79 29 126 88-3-16-5-28-5-38 0-32 14-50 41-50 37 0 72 33 125 87 30 30 46 49 46 56 0 3-3 4-6 4-6 0-15-14-39-39-58-60-96-89-109-89-9 0-16 6-16 14 0 18 17 54 49 109l273 474-65-3-222-394M54 44c0 30 18 84 59 142 39 54 79 81 110 81 19 0 33-14 33-31 0-38-27-96-85-160-38-42-72-63-93-63-15 0-24 12-24 31Z" horiz-adv-x="394" unicode="d"/><glyph id="glyph7032" d="M20 145c-4-15-6-29-6-42C14 40 50-5 99-5c45 0 88 29 141 82 33 34 51 53 51 60 0 3-2 5-6 5-7 0-20-21-58-59-47-46-85-73-123-73-25 0-40 16-40 46 0 9 2 22 5 40 130 30 201 88 201 140 0 26-21 46-55 46-55 0-119-34-183-104-26-28-39-45-39-49 0-3 1-4 5-4 5 0 12 7 22 20m54-33c38 103 111 158 145 158 10 0 18-9 18-20 0-40-59-116-163-138Z" horiz-adv-x="281" unicode="e"/><glyph id="glyph7034" d="M184 285c106 217 179 327 240 327 17 0 27-11 27-29 0-41-77-170-267-298M50 14l117 238c203 148 306 253 306 326 0 26-20 48-46 48-76 0-164-110-277-327C43 198-7 137-7 128c0-2 1-4 4-4 12 0 41 50 123 123L18 56c-6 3-11 5-16 5-17 0-31-14-31-33 0-9 5-19 16-28l-159-294 71 8L37-10h4c31 0 70 22 116 65 48 45 73 75 73 82 0 3-3 5-6 5-6 0-21-21-59-60-46-46-84-68-110-68h-5Z" horiz-adv-x="220" unicode="f"/><glyph id="glyph7036" d="M268 214c3 9 4 16 4 22 0 27-20 46-53 46-47 0-112-30-180-98-31-31-47-51-47-56 0-3 2-4 6-4 5 0 12 6 21 20-5-17-7-32-7-47C12 32 35-5 70-5c39 0 81 34 134 96L153-19C-23-122-114-196-114-266c0-33 18-50 51-50 64 0 157 96 260 291 121 74 181 154 181 162 0 3-2 5-5 5-11 0-51-72-162-144 43 83 96 177 159 280l-61-4-41-60M54 44c0 30 18 84 59 142 39 54 79 81 110 81 19 0 33-14 33-31 0-38-27-96-85-160-38-42-72-63-93-63-15 0-24 12-24 31m88-84C56-214-5-302-58-302c-19 0-29 12-29 34 0 55 74 138 229 228Z" horiz-adv-x="369" unicode="g"/><glyph id="glyph7038" d="m-42-1 61 7c139 177 230 261 257 261 8 0 11-4 11-12 0-15-17-32-44-66-38-48-64-83-64-123 0-42 19-71 48-71 20 0 57 28 112 84 31 32 48 50 48 58 0 3-2 5-5 5-6 0-17-17-46-47-55-57-92-85-108-85-11 0-16 6-16 18 0 18 17 44 46 84 34 47 62 79 62 122 0 29-15 49-38 49-36 0-92-55-183-155l283 483-65-9-128-219C84 204-7 145-7 128c0-3 2-4 6-4 3 0 12 7 23 19l80 86L-42-1Z" horiz-adv-x="377" unicode="h"/><glyph id="glyph7040" d="M212 435c0-17 12-29 28-29 21 0 40 24 40 45 0 17-11 29-27 29-21 0-41-24-41-45M89 219C41 146 8 100 8 58 8 19 30-5 62-5s68 32 122 87c30 31 46 48 46 55 0 3-2 5-6 5-7 0-18-16-46-46C124 39 88 9 61 9c-9 0-17 9-17 19 0 17 19 47 49 94l99 156-72-5C35 185-7 136-7 128c0-2 1-3 4-3 10 0 32 35 92 94Z" horiz-adv-x="220" unicode="i"/><glyph id="glyph7042" d="M180 435c0-17 11-29 27-29 21 0 40 24 40 45 0 17-11 29-27 29-21 0-40-24-40-45M-25-40c-86-174-147-262-200-262-19 0-29 12-29 34 0 55 74 138 229 228m133 280L-13-19c-176-103-267-177-267-247 0-33 18-50 51-50 64 0 157 96 260 291 123 79 180 154 180 163 0 3-3 4-6 4-10 0-49-67-161-144 47 88 94 181 141 280l-71-5-98-112C1 144-7 134-7 128c0-2 2-4 5-4 10 0 38 41 110 116Z" horiz-adv-x="201" unicode="j"/><glyph id="glyph7044" d="M88 219C40 146 8 100 8 58 8 19 30-5 62-5s68 32 122 87c30 31 46 48 46 55 0 3-2 5-6 5-7 0-18-18-46-46C123 41 90 9 58 9c-10 0-18 8-18 19 0 17 19 47 49 94l308 489-65-9-197-306c-3-4-31-39-87-100l-32-35C1 144-7 134-7 128c0-2 2-4 5-4 10 0 31 35 90 95Z" horiz-adv-x="220" unicode="l"/><glyph id="glyph7046" d="m13-1 71 7c136 167 209 261 251 261 10 0 14-3 14-12 0-15-12-33-31-61L188-1l70 7c136 176 223 261 249 261 8 0 11-4 11-12 0-15-17-32-44-66-38-48-64-83-64-123 0-42 19-71 48-71 20 0 57 28 112 84 31 32 49 50 49 58 0 3-3 5-6 5-6 0-17-17-46-47-55-57-92-85-108-85-11 0-16 6-16 18 0 18 17 44 46 84 34 47 62 79 62 122 0 29-15 49-38 49-36 0-89-54-176-153 27 39 42 74 42 111 0 24-16 42-40 42-40 0-93-53-174-155 26 42 40 76 40 108 0 29-15 47-39 47-33 0-67-32-118-87l-32-35C1 144-7 134-7 128c0-2 2-4 5-4 9 0 20 20 47 49 57 61 93 94 117 94 10 0 14-4 14-13 0-14-13-32-32-60L13-1Z" horiz-adv-x="609" unicode="m"/><glyph id="glyph7048" d="m14-1 70 7c139 176 229 260 257 260 8 0 11-3 11-11 0-15-17-32-44-66-38-48-64-83-64-123 0-42 19-71 48-71 20 0 57 28 112 84 31 32 49 50 49 58 0 3-3 5-6 5-6 0-17-17-46-47-55-57-92-85-108-85-11 0-16 6-16 18 0 18 17 44 46 84 34 47 62 79 62 122 0 29-15 48-38 48-36 0-92-53-182-154 26 42 40 76 40 108 0 29-15 47-39 47-33 0-67-32-118-87l-32-35C1 144-7 134-7 128c0-2 2-4 5-4 9 0 20 20 47 49 57 61 93 94 117 94 10 0 14-4 14-13 0-15-13-32-32-60L14-1Z" horiz-adv-x="443" unicode="n"/><glyph id="glyph7050" d="M224 91c35 45 55 83 55 121 0 44-27 72-69 72-47 0-112-34-176-104-27-30-41-46-41-51 0-3 1-4 5-4 5 0 12 7 22 20-5-17-8-32-8-46C12 31 37-5 79-5c36 0 83 27 132 81 9-2 17-2 23-2 37 0 74 18 102 52l11 13c1 1 1 3 1 5 0 4-1 6-4 6s-7-2-8-3l-13-15c-28-31-60-44-83-44-6 0-11 2-16 3M56 47c0 31 16 82 56 139 38 54 72 81 102 81 23 0 38-18 38-50 0-40-24-96-71-146-38-41-75-60-94-60-21 0-31 12-31 36Z" horiz-adv-x="332" unicode="o"/><glyph id="glyph7052" d="M-125-257 7-33c121 206 248 300 269 300 8 0 11-4 11-12 0-15-17-32-44-66-38-48-64-83-64-123 0-42 19-71 48-71 20 0 57 28 112 84 31 32 48 50 48 58 0 3-2 5-5 5-6 0-17-17-46-47-55-57-92-85-108-85-11 0-16 6-16 18 0 18 17 44 46 84 34 47 62 79 62 122 0 29-15 49-38 49-36 0-92-55-183-155l214 349-60-5-58-91C86 209-7 145-7 128c0-3 2-4 6-4 3 0 12 7 23 19l80 86-292-493 65 7Z" horiz-adv-x="377" unicode="p"/><glyph id="glyph7054" d="M268 210c2 10 3 18 3 26 0 29-19 47-52 47-47 0-117-33-185-104-28-29-42-45-42-51 0-3 2-3 6-3 5 0 12 6 22 19-5-16-8-32-8-46C12 32 35-4 70-4c36 0 79 29 126 88L-12-284l62 4C234-5 374 119 374 139c0 2-2 3-5 3-7 0-31-29-80-87l-64-75c-18-21-51-62-98-121l235 419-53-3-41-65M54 44c0 30 18 84 59 142 39 54 79 81 110 81 19 0 33-14 33-31 0-38-27-96-85-160-38-42-72-63-93-63-15 0-24 12-24 31Z" horiz-adv-x="363" unicode="q"/><glyph id="glyph7056" d="m14 0 70 7c57 72 105 126 148 162-8-21-13-37-13-48 0-25 15-39 42-39 35 0 80 44 80 56 0 3-3 5-6 5-9 0-35-48-76-48-15 0-25 11-25 27 0 35 17 56 41 74 44 33 73 52 73 71 0 9-9 16-23 16-41 0-60-29-82-87-31-27-59-54-86-80 28 47 48 82 48 124 0 24-15 43-39 43-33 0-67-32-118-87l-32-35C1 144-7 134-7 128c0-2 2-4 5-4 9 0 20 20 47 49 57 61 93 94 117 94 10 0 14-4 14-13 0-14-13-32-32-60L14 0Z" horiz-adv-x="330" unicode="r"/><glyph id="glyph7058" d="M123 258c1-13 2-26 2-38C125 87 58 11 24 11 14 11 9 16 9 22c0 14 12 27 12 38 0 10-9 19-21 19-16 0-31-15-31-32C-31 16-4-5 37-5c53 0 96 35 152 94 25 26 39 42 39 48 0 3-2 5-6 5-7 0-28-30-79-81 9 20 13 38 13 59 0 39-19 80-19 119 0 31 9 29 25 36 14 6 21 14 21 25 0 12-7 19-20 19-15 0-29-13-41-42C38 185-8 138-8 128c0-2 2-4 5-4 12 0 44 51 126 134Z" horiz-adv-x="218" unicode="s"/><glyph id="glyph7060" d="M89 219C41 146 8 100 8 58 8 19 30-5 62-5s68 32 122 87c30 31 46 48 46 55 0 3-2 5-6 5-7 0-17-16-46-46C124 40 89 9 61 9c-9 0-17 9-17 19 0 14 16 45 47 94l149 239h116l8 14H249l64 102-65-5-61-97h-49l-8-14h48l-43-65C85 221-7 149-7 128c0-2 1-3 4-3 10 0 32 35 92 94Z" horiz-adv-x="220" unicode="t"/><glyph id="glyph7062" d="m249 87 120 190-67-4C197 97 109 10 59 10c-9 0-16 8-16 18 0 17 19 46 49 94l99 155-72-4C35 185-8 136-8 128c0-2 2-3 5-3 10 0 32 35 91 94C40 147 7 100 7 58 7 19 30-5 62-5c29 0 75 32 131 97-2-9-4-19-4-29 0-39 18-68 47-68 21 0 62 31 122 94 25 26 39 41 39 49 0 2-2 4-6 4-8 0-17-18-46-47-55-56-90-85-108-85-11 0-16 6-16 18 0 15 11 32 28 59Z" horiz-adv-x="388" unicode="u"/><glyph id="glyph7064" d="M298 91c60 72 85 131 85 159 0 22-9 33-27 33-42 0-24-54-42-113C283 70 192 10 141 10c-16 0-25 8-25 25s22 49 57 102c22 33 39 60 39 94 0 32-18 53-44 53-36 0-69-33-120-88l-32-35C1 144-7 134-7 128c0-2 2-4 5-4 8 0 19 17 47 48 57 62 94 95 117 95 9 0 13-3 13-11 0-17-14-41-40-77-28-38-54-69-54-115 0-40 20-68 53-68 40 0 92 26 150 80 9-2 17-2 23-2 37 0 71 17 102 52l11 13c1 1 1 2 1 5 0 4 0 6-3 6s-8-2-9-3l-13-15c-25-27-58-44-81-44-5 0-11 2-17 3Z" horiz-adv-x="405" unicode="v"/><glyph id="glyph7066" d="M128 87v-3c0-56 27-89 55-89 22 0 60 28 114 84 32 32 48 50 48 58 0 3-3 5-6 5-6 0-16-18-45-47-55-57-93-85-109-85-13 0-17 6-17 20 0 25 12 76 44 127 42 68 81 102 97 102 21 0 9-38 42-38 14 0 27 11 27 26 0 23-16 36-43 36-40 0-75-34-122-100 0 6 1 12 1 17 0 55-18 83-49 83-32 0-66-32-117-87l-32-35C1 144-7 134-7 128c0-2 2-4 5-4 8 0 19 18 47 48 57 62 93 95 115 95 12 0 15-5 15-19 0-31-19-96-50-142C85 46 32 17 21 17c-23 0 0 46-39 46-17 0-30-14-30-32C-48 11-29-5-2-5c36 0 77 32 130 92Z" horiz-adv-x="334" unicode="x"/><glyph id="glyph7068" d="M291 133 212-19C36-122-55-196-55-266c0-33 18-50 51-50 64 0 157 96 260 291 121 74 181 154 181 162 0 3-2 5-5 5-11 0-51-72-162-144 43 83 96 177 159 280l-61-4C262 95 158 17 131 17c-8 0-16 9-16 20 0 15 21 46 55 98 23 34 41 63 41 96 0 32-17 53-43 53-36 0-69-33-120-88l-32-35C1 144-7 134-7 128c0-2 2-4 5-4 8 0 19 18 47 48 57 62 93 95 115 95 11 0 15-3 15-13 0-15-14-39-40-75-28-38-54-70-54-117 0-36 20-59 42-59 35 0 92 43 168 130M201-40C113-213 56-302 1-302c-19 0-29 12-29 34 0 55 74 138 229 228Z" horiz-adv-x="427" unicode="y"/><glyph id="glyph7070" d="M10 57C-21 40-37 26-37 9c0-7 5-12 13-12C-3-3 6 30 41 57c36 28 81 41 96 41 5 0 7-1 7-4 0-11-8-23-8-43 0-36 17-56 41-56 26 0 61 30 115 85 32 32 48 50 48 57 0 3-3 5-6 5-7 0-19-21-54-56-51-50-82-76-94-76-4 0-7 5-7 11 0 12 21 37 21 64 0 21-16 37-39 37s-49-14-83-30c56 48 114 93 173 135 30 16 47 22 47 41 0 6-6 11-14 11-25 0-39-60-127-60-22 0-32 8-32 17 0 6 8 16 8 29s-10 22-27 22c-20 0-33-12-33-31 0-4 2-10 5-17-25-36-51-65-73-92l-11-14c-1-2-1-3-1-4v-4c0-1 2-3 5-3 2 0 5 2 8 6l16 18c5 6 27 32 64 78 15-14 32-20 55-20 19 0 40 5 65 12C142 168 77 115 10 57Z" horiz-adv-x="330" unicode="z"/><glyph id="glyph7072" d="M268 214c3 9 4 16 4 22 0 27-20 46-53 46-47 0-112-30-180-98-31-31-47-51-47-56 0-3 2-4 6-4 5 0 12 6 21 20-5-17-7-32-7-47C12 32 35-5 70-5c36 0 79 29 126 88-3-16-5-28-5-38 0-32 14-50 41-50 37 0 72 33 125 87 30 30 46 49 46 56 0 3-3 4-6 4-6 0-17-17-46-46-55-57-91-85-108-85-11 0-15 5-15 16 0 19 15 43 37 78l110 173-66-4-41-60M54 44c0 30 18 84 59 142 39 54 79 81 110 81 19 0 33-14 33-31 0-38-27-96-85-160-38-42-72-63-93-63-15 0-24 12-24 31m175 252c14 0 37 13 73 34 61 36 92 74 92 106 0 19-12 30-30 30-36 0-37-52-61-87-37-53-82-62-82-76 0-5 2-7 8-7Z" horiz-adv-x="394" unicode="á"/><glyph id="glyph7074" d="M89 219C41 146 8 100 8 58 8 19 30-5 62-5s68 32 122 87c30 31 46 48 46 55 0 3-2 5-6 5-7 0-18-16-46-46C124 39 88 9 61 9c-9 0-17 9-17 19 0 17 19 47 49 94l99 156-72-5C35 185-7 136-7 128c0-2 1-3 4-3 10 0 32 35 92 94m53 77c14 0 37 13 73 34 61 36 92 74 92 106 0 19-12 30-30 30-36 0-37-52-61-87-37-53-82-62-82-76 0-5 2-7 8-7Z" horiz-adv-x="220" unicode="í"/><glyph id="glyph7076" d="m249 87 120 190-67-4C197 97 109 10 59 10c-9 0-16 8-16 18 0 17 19 46 49 94l99 155-72-4C35 185-8 136-8 128c0-2 2-3 5-3 10 0 32 35 91 94C40 147 7 100 7 58 7 19 30-5 62-5c29 0 75 32 131 97-2-9-4-19-4-29 0-39 18-68 47-68 21 0 62 31 122 94 25 26 39 41 39 49 0 2-2 4-6 4-8 0-17-18-46-47-55-56-90-85-108-85-11 0-16 6-16 18 0 15 11 32 28 59m-23 209c14 0 37 13 73 34 61 36 92 74 92 106 0 19-12 30-30 30-36 0-37-52-61-87-37-53-82-62-82-76 0-5 2-7 8-7Z" horiz-adv-x="388" unicode="ú"/></font>
</defs>
</svg>
